#TITLE:Heart beat;
#SUBTITLE:SDOCN(lv21 song);
#ARTIST:Unknown artist;
#TITLETRANSLIT:;
#SUBTITLETRANSLIT:;
#ARTISTTRANSLIT:;
#CREDIT:Jerry;
#BANNER:;
#BACKGROUND:;
#LYRICSPATH:;
#CDTITLE:;
#MUSIC:lv21.ogg;
#OFFSET:0.000;
#SAMPLESTART:100.000;
#SAMPLELENGTH:11.960;
#SELECTABLE:YES;
#BPMS:0.000=130.000;
#STOPS:;
#BGCHANGES:;
// cache tags:
#FIRSTBEAT:10.000;
#LASTBEAT:303.000;
#SONGFILENAME:Songs/Music V.I.P ^_^/lv21/lv21.sm;
#HASMUSIC:1;
#HASBANNER:0;
#MUSICLENGTH:140.116;
// end cache tags

//---------------dance-single - ----------------
#NOTES:
     dance-single:
     :
     Hard:
     21:
     0.978,1.000,1.000,0.050,0.692,733.000,183.000,7.000,0.000,49.000:
0000
0000
0000
0000
,
0000
0000
0000
0000
,
0000
0000
0000
0000
0000
0000
0000
0000
1000
0001
0100
0001
0010
1000
0100
0001
,
0120
1000
0001
1000
0100
0001
0100
1000
,
0100
1000
0001
0100
0031
0000
0000
0000
,
0210
0001
0010
1000
0001
1000
0010
0001
,
0010
0000
1000
0000
0001
0000
1000
0000
0310
1000
0001
0010
1000
0100
0001
0010
,
0101
0000
0100
0010
1100
0000
0010
0000
1000
0000
0010
0000
0101
0000
0010
0000
,
1010
0000
0010
0100
0011
0000
0100
0000
0001
0000
0100
0000
1010
0000
0100
0000
,
1100
0000
0001
0100
0101
0000
1000
0000
0010
0000
0100
0000
1010
0000
1000
0000
,
0011
0000
1000
0010
1010
0000
0100
0000
0010
0000
0000
0000
0000
0000
0000
0000
,
1000
0001
0100
0001
0010
1000
0100
0001
,
0100
1000
0010
0100
0001
1000
0100
0001
,
1010
0000
0000
0000
0010
0000
0101
0000
0000
0000
0001
0010
1010
0000
0100
0000
,
0101
0000
0010
0000
0110
0010
1000
0000
0001
0000
1000
0000
0110
0100
0000
0000
,
0001
1000
0010
1000
0010
0100
0001
1000
,
0100
0001
1000
0100
0001
1000
0001
0100
,
0101
0000
0000
0000
0100
0000
1010
0000
0000
0000
0100
0100
0101
0000
0000
0000
,
1010
0000
0000
0000
0110
0100
0001
0000
1000
0000
0000
0000
0110
0010
0000
0000
,
0101
0100
0010
1010
0100
0001
0110
1000
,
1010
0010
0100
0101
0010
1000
0110
0001
,
1100
0010
0100
0011
1000
0010
1010
0001
,
0011
0100
0010
1100
0010
0001
0010
1000
,
0110
0010
0101
0010
1010
0010
0011
0100
,
1100
0010
1001
0100
0101
1000
1100
0010
,
1010
0010
0011
1000
0101
0010
0110
0001
,
1010
0100
0101
0001
1010
1000
1100
0100
,
0101
0001
0011
0100
1010
0010
0011
0100
,
1010
0010
0101
0100
1100
0010
0011
1000
,
0101
0010
1010
0010
0011
0100
1100
0010
,
0101
0001
1010
1000
0101
0010
0101
0010
,
1000
0000
0010
0100
0000
0010
1000
0100
0001
0000
0100
0000
0010
0000
1000
0000
,
0001
0010
1000
0100
0000
0010
1000
0001
0010
0000
0100
0000
0010
0100
0001
0000
,
0100
0000
1000
0100
0000
0010
0001
0100
0010
0000
1000
0100
0000
0001
0010
0000
,
0100
0001
0000
0010
1000
0000
0100
0010
0001
0000
0100
1000
0010
0001
0100
0010
,
0000
0100
1000
0000
0001
0010
0000
0100
0010
1000
0100
0000
0001
0010
0000
0100
,
0010
0000
1000
0000
0010
0100
1000
0000
0001
0010
1000
0010
0000
0010
0100
0000
,
0010
0001
1000
0001
0010
0000
0100
0010
0000
0100
1000
0010
0001
0000
0100
1000
,
0010
0001
0010
0100
1000
0010
0000
0100
0010
0001
0000
0010
0100
1000
0010
0001
,
1010
0100
0010
0101
0010
0001
1000
0010
,
0101
0010
1000
1010
0001
1000
0010
0001
,
1010
0010
0101
0001
0100
1000
0001
0100
,
1010
0100
0001
0110
1000
0010
0001
0100
,
0101
0010
1000
0011
0100
0010
0001
1000
,
0110
1000
0001
0110
0001
1000
0010
0100
,
0001
1000
0010
0110
1000
0001
0100
0001
,
1010
0010
0001
0110
1000
0010
0200
0000
,
0000
0000
0000
0000
0000
0000
0000
0000
1310
0010
0100
0010
0001
1000
0110
0001
,
0100
0001
1000
0100
0001
1000
0010
0100
0011
1000
0100
0001
0010
1000
1100
0001
,
0010
1000
0010
1000
0001
0100
0010
1000
0011
0001
0100
0010
1000
0001
0110
1000
,
0100
0001
1000
0100
0001
0010
1000
0100
0101
0010
1000
0100
0010
0100
1010
0001
,
0010
1000
0100
0001
1000
0100
0001
1000
0110
0100
1000
0001
0010
1000
0011
0001
,
0100
0010
1000
0001
0100
1000
0001
0100
1010
1000
0001
0100
0010
0001
0011
1000
,
0001
0010
1000
0010
0100
0010
1000
0001
0110
1000
0100
0001
0010
1000
0101
0001
,
0010
1000
0010
0001
0100
1000
0100
0001
1010
1000
0010
0100
0010
1000
0101
0010
,
1000
0100
0010
0100
0001
1000
0010
0100
0001
0000
0000
0000
0000
0000
0000
0000
,
0010
0100
1000
0101
1010
0101
1010
0000
0111
0000
1100
0000
1110
0000
0011
0000
,
1101
0011
1011
0110
1110
0011
0111
0110
,
1101
0110
1011
0110
1011
1100
1101
0110
,
1011
0110
0111
1010
1110
0101
1101
1001
,
1110
0110
1101
0011
1011
0110
1110
0011
,
0111
1100
1110
0101
1011
1010
1101
0110
,
0111
1100
1110
0101
1011
0110
1101
0110
,
1110
1100
0111
1010
1110
0011
0111
1010
,
1101
0000
0110
0000
1011
0000
0110
0000
0211
1000
0001
0010
1000
0010
1001
1000
,
0010
0001
1000
0001
0010
1000
0001
1000
1001
0010
1000
0010
0001
1000
0011
0010
,
1000
0001
0010
1000
0010
0001
1000
0010
1312
0010
0100
0010
1000
0100
0110
0100
,
1000
0010
0100
0010
1000
0010
0100
1000
1010
0100
0010
1000
0100
1000
0110
0100
,
1000
0100
0010
1000
0010
0100
1000
0010
2113
0001
0010
0100
0001
0010
0101
0100
,
0010
0001
0100
0001
0100
0010
0001
0010
0101
0100
0010
0000
0100
0001
0011
0100
,
0001
0010
0100
0001
0010
0100
0001
0100
3121
0001
1000
0100
0001
1000
1001
0100
,
1000
0001
0100
1000
0001
1000
0001
0100
1100
0001
0100
0001
1000
0001
1001
0100
,
0001
1000
0100
0001
0100
1000
0001
0100
0031
0000
0000
0000
1000
0000
0000
0000
,
0010
0100
0000
0000
0010
0000
0000
0000
1000
0000
0000
0000
0010
0000
0000
0000
,
1000
0100
0000
0000
0010
0000
0000
0000
0001
0000
0000
0000
0100
0000
0000
0000
,
0010
0100
0000
0000
0001
0000
0000
0000
0100
0000
0000
0000
0001
0000
0000
0000
;
